#TITLE:Love Generation;
#SUBTITLE:;
#ARTIST:Suzy Lazy;
#TITLETRANSLIT:;
#SUBTITLETRANSLIT:;
#ARTISTTRANSLIT:;
#CREDIT:;
#BANNER:;
#BACKGROUND:;
#LYRICSPATH:;
#CDTITLE:;
#MUSIC:Love Generation.mp3;
#MUSICLENGTH:86.674;
#OFFSET:-0.080;
#SAMPLESTART:44.165;
#SAMPLELENGTH:12.000;
#SELECTABLE:YES;
#BPMS:0.000=152.000;
#STOPS:;
#BGCHANGES:;
#FIRSTBEAT:12.000;

#LASTBEAT:218.000;

#SONGFILENAME:Songs/ERICth The 3rd/Love Generation/Love Generation.sm;

#HASMUSIC:1;

#HASBANNER:0;


//---------------dance-single - MANIAC----------------
#NOTES:
     dance-single:
     MANIAC:
     hard:
     7:
     0.513,0.503,0.335,0.058,0.040,277.000,29.000,5.000,0.000,0.000:

0000
0000
0000
0000
,
0000
0000
0000
0000
,
0000
0000
0000
0000
,
0010
1000
0100
1000
0001
1000
0100
1000
,
0010
0110
0110
0110
,
0010
0001
1000
0001
0100
0001
1000
0001
,
0010
0110
0110
0110
,
0001
1000
0001
0100
0001
0010
0001
0100
,
0001
1001
1001
1001
,
1000
0001
1000
0010
1000
0100
1000
0010
,
1000
1001
1001
1001
,
0010
1000
0100
0000
0010
0001
0000
0001
,
1000
0100
0001
0010
,
0100
0001
0010
0000
0100
1000
0000
1000
,
0001
0100
1000
0010
,
1000
0001
0010
0000
0010
0100
0000
0100
,
0001
1000
0100
0010
,
0001
1000
0010
0000
0010
0100
0000
0100
,
1000
0001
0100
0010
,
1100
0000
1010
0000
1000
0100
0010
0001
,
0000
0100
0000
0010
0000
1000
0100
0001
,
0000
1100
0000
0010
0000
0101
0000
1000
,
0000
0100
0000
1001
0000
0000
0000
0000
,
0011
0000
0101
0000
1000
0001
0010
0001
,
0000
1000
0000
0100
0000
0010
0001
1000
,
0000
0001
0000
0100
0000
0101
0000
0000
,
2000
0000
0000
3100
0000
0000
0010
0000
,
0002
0000
0000
0103
0000
0000
1001
0000
,
0100
0000
0000
0000
0001
0000
1000
0010
0000
0000
0010
0000
0000
0000
0000
0000
,
0100
0001
1000
0100
1000
0001
0100
0000
,
0000
0001
0010
0100
1000
0100
0010
0001
,
0000
0001
0000
0000
1000
1000
1000
0000
,
0100
0000
0000
0000
0001
0000
1000
0010
0000
0000
0010
0000
0000
0000
0000
0000
,
0100
0001
1000
0100
0010
0100
1000
0000
,
0000
1000
0010
0100
0001
0100
0010
1000
,
0000
0001
0000
0000
0001
0001
0001
0000
,
0100
0000
0000
0000
0001
0000
1000
0010
0000
0000
0010
0000
0000
0000
0000
0000
,
0100
0001
1000
0100
1000
0001
0100
0000
,
0000
0001
0010
0100
1000
0100
0010
0001
,
0000
0001
0000
0000
1000
1000
1000
0000
,
0100
0000
0000
0000
0001
0000
1000
0010
0000
0000
0010
0000
0000
0000
0000
0000
,
0100
0001
1000
0100
0010
0100
1000
0000
,
0000
1000
0010
0100
0001
0100
0010
1000
,
0000
0001
0000
0000
0001
1001
0001
0000
,
0100
0000
0000
0000
0001
0000
0000
0000
0100
0010
0100
0010
0100
0000
0000
0000
,
0010
1000
0100
1000
0001
1000
0100
1000
,
0010
0110
0110
0110
,
0010
0001
1000
0001
0100
0001
1000
0001
,
0020
0100
1000
0130
,
0001
1000
0001
0100
0001
0010
0001
0100
,
0001
1001
1001
1001
,
1000
0001
1000
0010
1000
0100
1000
0010
,
2000
0010
0001
3010
,
1010
0000
0000
0000
0100
0000
0010
0001
0000
0000
0020
0000
0000
0000
0000
0000
,
0000
0000
0030
0000
,;

//---------------dance-single - ANOTHER----------------
#NOTES:
     dance-single:
     ANOTHER:
     medium:
     5:
     0.377,0.409,0.000,0.058,0.006,224.000,0.000,5.000,0.000,0.000:

0000
0000
0000
0000
,
0000
0000
0000
0000
,
0000
0000
0000
0000
,
0010
1000
0100
0000
0010
0001
0100
0000
,
0010
1000
0100
0000
0100
0000
0100
0000
,
0010
1000
0100
0000
0010
0001
0100
0000
,
0010
1000
0100
0000
0010
0000
0010
0000
,
0100
1000
0001
0000
0100
0001
1000
0000
,
0100
1000
0001
0000
0010
0000
0010
0000
,
0100
1000
0001
0000
0100
0001
1000
0000
,
0100
1000
0001
0000
0100
0000
0100
0000
,
0010
1000
0100
0010
,
0001
0001
1000
1000
,
0010
0100
0001
1000
,
0010
0010
0100
0100
,
1000
0001
0100
0010
,
1000
1000
0001
0001
,
0100
0010
0001
1000
,
0001
0001
1000
1000
,
0100
0000
1000
0000
0010
1000
0100
0000
,
0001
0000
0100
0000
,
0010
0000
0100
1000
,
0010
1000
0100
0000
0010
0000
0000
0000
,
0100
0000
0000
0000
0010
0100
0001
0000
,
1000
1000
0000
0100
,
1000
0010
0100
0001
,
2000
0000
0000
3100
0000
0000
0000
0000
,
0020
0000
0000
0031
0000
0000
0000
0000
,
1000
0010
0100
0001
,
1000
0100
0010
0100
,
1000
0000
0001
0000
1000
0010
1000
0010
,
0000
0100
0000
0000
1000
0001
0100
0000
,
0010
0100
1000
0001
,
0100
0000
0010
0000
1000
0001
0100
0000
,
0000
0000
0001
0000
1000
0100
0010
0100
,
0000
1000
0000
0000
0001
1000
0001
0000
,
0100
0010
0001
1000
,
0100
0000
0010
0000
1000
0001
0010
0000
,
0100
0000
1000
0000
0001
0010
0001
1000
,
0000
0100
0000
0000
0010
0001
1000
0000
,
0100
0010
0100
1000
,
0001
0001
1000
1000
,
0100
0000
0010
0000
0001
0000
1000
0100
,
0000
1000
0000
0000
0010
1000
0010
0000
,
1000
0000
1000
0000
1000
0001
1000
0001
,
0010
1000
0100
0000
0010
0001
0100
0000
,
0010
1000
0100
0000
0100
0000
0100
0000
,
0010
1000
0100
0000
0010
0001
0100
0000
,
0020
0000
0000
0030
,
0100
1000
0001
0000
0100
0001
1000
0000
,
0100
1000
0001
0000
0010
0000
0010
0000
,
0100
1000
0001
0000
0100
0001
1000
0000
,
0200
0000
0000
0300
,
0010
0000
0000
0000
0001
0000
1000
0100
0000
0000
0020
0000
0000
0000
0000
0000
,
0000
0000
0030
0000
,;

//---------------dance-single - BASIC----------------
#NOTES:
     dance-single:
     BASIC:
     easy:
     3:
     0.244,0.282,0.046,0.012,0.000,143.000,4.000,1.000,0.000,0.000:

0000
0000
0000
0000
,
0000
0000
0000
0000
,
0000
0000
0000
0000
,
1010
0000
0100
0000
,
0001
0000
0100
0000
,
0011
0000
0100
0000
,
1000
0000
0010
0000
,
0110
0000
1000
0000
,
0100
0000
0010
0000
,
1001
0000
0100
0000
,
0010
0010
0010
0010
,
1000
0000
0100
0000
,
0010
0000
0100
0000
,
0001
0000
0100
0000
,
0010
0000
0100
0000
,
0001
0000
1000
0000
,
0010
0000
0001
0000
,
0010
0000
1000
0000
,
0100
0000
0001
0000
,
0100
1000
0100
1000
,
0001
0100
0001
0100
,
0001
1000
0001
1000
,
0010
1000
0100
1000
,
0010
1000
0001
0010
,
0100
1000
0001
0100
,
0010
1000
0001
1000
,
0001
0000
0000
0000
,
1000
0000
0000
0000
,
0100
1000
0001
0100
,
0000
0100
0000
0100
,
0000
0100
0000
0010
,
0001
1000
0100
0010
,
0100
1000
0001
0100
,
0010
0000
0010
0000
,
0001
0000
1000
0000
,
0000
0100
0010
0010
,
1000
0001
0010
0000
,
0100
1000
0010
0000
,
0001
1000
0100
0000
,
0010
0001
0100
0000
,
0001
1000
0001
0000
,
0010
1000
0100
0000
,
0001
0100
0010
0000
,
0010
1000
0001
1000
,
0100
0000
0100
0000
,
0010
1000
0001
0000
,
0010
1000
0001
0000
,
0010
0001
1000
0000
,
0010
0001
1000
0000
,
0100
0010
0100
0000
,
0010
0100
0010
0000
,
1000
0001
1000
0000
,
0100
1000
0010
0001
,
1000
0001
2000
0001
,
0000
3000
0000
0000
,;
